Trang ChínhCalendarTrợ giúpTìm kiếmThành viênNhómĐăng kýĐăng Nhập




The Killing Machine | 1975 | 720p | 4.46GB | english speaking & subtitle
Wed Jan 27, 2010 10:50 am
avatar
..:::| Admin |:::...

Cấp bậc : Admin

.:.Khẩu cung.:.

Tổng số bài gửi : 164
Join date : 23/01/2010
Age : 26
Đến từ : tren troi roi xuong


Bài gửiTiêu đề: The Killing Machine | 1975 | 720p | 4.46GB | english speaking & subtitle
Xem lý lịch thành viên http://it-zoom.do-talk.com

 

IMDB info:
Director:Norifumi Suzuki
Writer:Takeshi Matsumoto (writer)
Release Date:February 1976 (USA) more
Genre:Action | Drama more
Mr Soh, a righteous man with a cold star and fists of steel, returns to a lawless post-war Japan in 1946.
He protects the weak, defends the poor and knocks some good sense into
friends and enemies alike. Rapists and gangsters get the worst of it,
as Mr Soh builds up his school on the island of Shikoku
Cast (Cast overview, first billed only)
Sonny Chiba ... Doshin So
Yutaka Nakajima ... Kiku Sakamoto
Makoto Satô ... Kentaro Otaki
Naoya Makoto ... Hiroshi Tomoda

General
Complete name :The.Killing.Machine.1975.720p.E.mkv
Format : Matroska
File size : 4.26 GiB
Duration : 1h 26mn
Overall bit rate : 7 012 Kbps
Encoded date : UTC 2009-09-21 10:31:41
Writing application : mkvmerge v2.9.5 ('Tu es le seul') built on Jun 7 2009 11:07:07
Writing library : libebml v0.7.7 + libmatroska v0.8.1
Video #1
ID : 1
Format : AVC
Format/Info : Advanced Video Codec
Format profile : High@L4.1
Format settings, CABAC : Yes
Format settings, ReFrames : 5 frames
Muxing mode : Container profile=Unknown@4.1
Codec ID : V_MPEG4/ISO/AVC
Duration : 1h 26mn
Bit rate : 6 681 Kbps
Nominal bit rate : 6 818 Kbps
Width : 1 280 pixels
Height : 544 pixels
Display aspect ratio : 2.35:1
Frame rate : 23.976 fps
Resolution : 24 bits
Colorimetry : 4:2:0
Scan type : Progressive
Bits/(Pixel*Frame) : 0.400
Stream size : 4.05 GiB (95%)
Writing library : x264 core 75 r1259 dd026f2
Language : English
Audio #2
ID : 2
Format : AC-3
Format/Info : Audio Coding 3
Codec ID : A_AC3
Duration : 1h 26mn
Bit rate mode : Constant
Bit rate : 192 Kbps
Channel(s) : 2 channels
Channel positions : L R
Sampling rate : 48.0 KHz
Stream size : 119 MiB (3%)
Language : English
Text #3
ID : 3
Format : UTF-8
Codec ID : S_TEXT/UTF8
Codec ID/Info : UTF-8 Plain Text
Language : English


Code:

share.com/files/295301818/The.Killing.Machine.1975.720p.E.part01.rar
rapidshare.com The.Killing.Machine.1975.720p.E.part02.rar
rapidshare.com The.Killing.Machine.1975.720p.E.part03.rar
rapidshare.com The.Killing.Machine.1975.720p.E.part04.rar
rapidshare.com The.Killing.Machine.1975.720p.E.part05.rar
rapidshare.com The.Killing.Machine.1975.720p.E.part06.rar
rapidshare.com The.Killing.Machine.1975.720p.E.part07.rar
rapidshare.com The.Killing.Machine.1975.720p.E.part08.rar
rapidshare.com The.Killing.Machine.1975.720p.E.part09.rar
rapidshare.com The.Killing.Machine.1975.720p.E.part10.rar
rapidshare.com The.Killing.Machine.1975.720p.E.part11.rar
rapidshare.com The.Killing.Machine.1975.720p.E.part12.rar
rapidshare.com The.Killing.Machine.1975.720p.E.part14.rar
rapidshare.com The.Killing.Machine.1975.720p.E.part15.rar
rapidshare.com The.Killing.Machine.1975.720p.E.part16.rar
rapidshare.com The.Killing.Machine.1975.720p.E.part17.rar
rapidshare.com The.Killing.Machine.1975.720p.E.part18.rar
rapidshare.com The.Killing.Machine.1975.720p.E.part19.rar
rapidshare.com The.Killing.Machine.1975.720p.E.part20.rar
rapidshare.com The.Killing.Machine.1975.720p.E.part21.rar
rapidshare.com The.Killing.Machine.1975.720p.E.part22.rar
rapidshare.com The.Killing.Machine.1975.720p.E.part23.rar
rapidshare.com The.Killing.Machine.1975.720p.E.part24.rar
rapidshare.com The.Killing.Machine.1975.720p.E.part25.rar
rapidshare.com The.Killing.Machine.1975.720p.E.part26.rar
rapidshare.com The.Killing.Machine.1975.720p.E.part27.rar
rapidshare.com The.Killing.Machine.1975.720p.E.part28.rar
rapidshare.com The.Killing.Machine.1975.720p.E.part29.rar
rapidshare.com The.Killing.Machine.1975.720p.E.part30.rar
rapidshare.com The.Killing.Machine.1975.720p.E.part31.rar
rapidshare.com The.Killing.Machine.1975.720p.E.part32.rar
rapidshare.com The.Killing.Machine.1975.720p.E.part33.rar
rapidshare.com The.Killing.Machine.1975.720p.E.part34.rar
rapidshare.com The.Killing.Machine.1975.720p.E.part35.rar
rapidshare.com The.Killing.Machine.1975.720p.E.part36.rar
rapidshare.com The.Killing.Machine.1975.720p.E.part37.rar
rapidshare.com The.Killing.Machine.1975.720p.E.part38.rar
rapidshare.com The.Killing.Machine.1975.720p.E.part39.rar
rapidshare.com The.Killing.Machine.1975.720p.E.part40.rar
rapidshare.com The.Killing.Machine.1975.720p.E.part41.rar
rapidshare.com The.Killing.Machine.1975.720p.E.part42.rar
rapidshare.com The.Killing.Machine.1975.720p.E.part43.rar
rapidshare.com The.Killing.Machine.1975.720p.E.part44.rar
rapidshare.com The.Killing.Machine.1975.720p.E.part45.rar
rapidshare.com The.Killing.Machine.1975.720p.E


Chữ Kí Của Admin


Hãy cùng chia sẻ với bạn bẻ bằng cách *

Copy và gởi tới nick YAHOO bạn bè !


Trang 1 trong tổng số 1 trang


Hey ! Cho bọn mình biết ý kiến của bạn nào ^^
  

Permissions in this forum:Bạn không có quyền trả lời bài viết
IT-ZooM ^^! :: Movies :: Download phim :: Hành động - Chiến tranh / Viễn tưởng-
Powered by Forumotion® Version phpBB2
Copyright ©2009 - 2010, Skin By watermelon .
Skin IT -zo0m ver Tết Âm Lịch


 
Free forum | © phpBB | Free forum support | Liên hệ | Report an abuse | Sosblogs.com